The Four III Final Battle 2014 BDRip x264 1080p

Posted 16/11/2014 Film ,

Gordon Chan (Painted Skin) returns with the final installment of the epic 3D wuxia/fantasy trilogy based on Wen Ruian's famous novels in The Four III! Following the events of The Four II, Emotionless (Crystal Liu Yifei, A Chinese Ghost Story) has left Six Doors, as has Cold Blood (Deng Chao, Detective Dee And The Mystery Of The Phantom Flame), who has decided to investigate the death of Lord Bu (Cheng Taishen, Under the Hawthorn Tree) on his own. The departure of two of the four constables has effectively left Six Doors defunct. At this time, trouble begins to brew in the Imperial Palace as Emperor Huizong (Alec Su, The Assassins) plans to travel incognito to the outside world. When he is almost assassinated and subsequently disappears, Cold Blood, Emotionless, Iron Hands (Collin Chou, Badges of Fury) and Life Snatcher (Ronald Cheng, Golden Chickensss) must band together once again under Master Zhuge (Anthony Wong, White Vengeance) to save the empire from a massive conspiracy.

Video: x264 4353 Kbps 1h 46mn 1920 x 816 pixels 23.976 fps
Audio: AC-3 640Kbps 48.0KHz Chinese
Subtitle: English, Chinese T/S

Format : Matroska
Format version : Version 2
File size : 3.24 GiB
Duration : 1h 46mn
Overall bit rate : 4 353 Kbps
Writing application : HandBrake 0.9.9
Writing library : libmkv 0.6.5

Video
ID : 1
Format : AVC
Format/Info : Advanced Video Codec
Format profile : High@L4.1
Format settings, CABAC : Yes
Format settings, ReFrames : 5 frames
Codec ID : V_MPEG4/ISO/AVC
Duration : 1h 46mn
Bit rate : 3 000 Kbps
Width : 1 920 pixels
Height : 816 pixels
Display aspect ratio : 2.35:1
Frame rate mode : Constant
Frame rate : 23.976 fps
Color space : YUV
Chroma subsampling : 4:2:0
Bit depth : 8 bits
Scan type : Progressive
Bits/(Pixel*Frame) : 0.080
Stream size : 2.22 GiB (69%)
Writing library : x264 core 130 r2273 b3065e6

Language : English
Default : Yes
Forced : No
Color primaries : BT.709
Transfer characteristics : BT.709
Matrix coefficients : BT.709

Audio #1
ID : 2
Format : AC-3
Format/Info : Audio Coding 3
Mode extension : CM (complete main)
Format settings, Endianness : Big
Codec ID : A_AC3
Duration : 1h 46mn
Bit rate mode : Constant
Bit rate : 640 Kbps
Channel(s) : 6 channels
Channel positions : Front: L C R, Side: L R, LFE
Sampling rate : 48.0 KHz
Bit depth : 16 bits
Compression mode : Lossy
Stream size : 488 MiB (15%)
Language : Chinese
Default : Yes
Forced : No

Audio #2
ID : 3
Format : AC-3
Format/Info : Audio Coding 3
Mode extension : CM (complete main)
Format settings, Endianness : Big
Codec ID : A_AC3
Duration : 1h 46mn
Bit rate mode : Constant
Bit rate : 640 Kbps
Channel(s) : 6 channels
Channel positions : Front: L C R, Side: L R, LFE
Sampling rate : 48.0 KHz
Bit depth : 16 bits
Compression mode : Lossy
Stream size : 488 MiB (15%)
Language : Chinese
Default : No
Forced : No

Text #1
ID : 4
Format : PGS
Codec ID : S_HDMV/PGS
Codec ID/Info : The same subtitle format used on BDs/HD-DVDs
Language : Chinese
Default : No
Forced : No

Text #2
ID : 5
Format : PGS
Codec ID : S_HDMV/PGS
Codec ID/Info : The same subtitle format used on BDs/HD-DVDs
Language : Chinese
Default : No
Forced : No

Text #3
ID : 6
Format : PGS
Codec ID : S_HDMV/PGS
Codec ID/Info : The same subtitle format used on BDs/HD-DVDs
Language : English
Default : No
Forced : No

Menu
00:00:00.000 : Chapter 1
00:07:00.461 : Chapter 2
00:20:39.947 : Chapter 3
00:27:47.791 : Chapter 4
00:35:24.038 : Chapter 5
00:44:45.724 : Chapter 6
00:52:07.415 : Chapter 7
01:03:12.288 : Chapter 8
01:09:05.141 : Chapter 9
01:18:30.038 : Chapter 10
01:29:23.858 : Chapter 11
01:36:59.104 : Chapter 12

The.Four.III.Final.Battle.2014-Bluray.1080p-3K.rar

These files can all be downloaded at Usenet. Get 14 Days for free Access to USENET. Free 300 GB Unlimited downloads!