Haru [1996] WEB-DL H264 720p

Posted 30/05/2016 Film


Haru 1996 WEB-DL 720p H264-iTunes [春天情书] 森田芳光作品 转自老老朱专用MK42微薄。种子内附外挂字幕欢迎辅种

◎译  名 春天情书/春天
◎片  名 (ハル)
◎年  代 1996
◎国  家 日本
◎类  别 剧情/爱情
◎语  言 日语/汉语普通话
◎上映日期 1996-03-09(日本)
◎IMDb评分 7.2/10 from 59 users
◎IMDb链接 www.imdb.com/title/tt0115431/
◎豆瓣评分 8.4/10 from 1,663 users
◎豆瓣链接 https://movie.douban.com/subject/1858233/
◎片  长 117分钟
◎导  演 森田芳光 Yoshimitsu Morita
◎主  演 深津绘里 Eri Fukatsu
      内野圣阳 Masaaki Uchino
      户田菜穗 Naho Toda
      宫泽和史 Kazufumi Miyazawa

◎简  介

  学生时代作为出色的美式足球选手大出风头,但因伤隐退后,速见升(内野圣阳 饰)进入东京一家公司成为平凡的上班族。无聊烦恼的职场交际和女友不咸不淡的往来令他倍感烦闷。在此之后,他以“春(ハル)”作网名,登陆一个电影留言板寻求同好。留言板上充斥着热爱电影的人群,速见独独与网名“星星(ほし)”的陌生人相聊甚欢。未过多久,他们通过私人邮件聊天,从电影聊到爱情、事业、人生。星星的真实身份是住在盛冈的女孩藤间美津江(深津绘里 饰),多年前爱情道路上的巨大打击让她始终无法向前迈出一步。她不停地变换工作,仿佛一只找不到归宿的鸟儿。通过邮件,星星和春天彼此牵绊与吸引,成为了虚拟时代来临时从未谋面的知心好友。两人的话题不断深入,看似一切美好,直到一次意外状况发生,令他们之间的信任接受史无前例的考验……
  本片荣获第70回日本电影旬报十佳影片第四名。

General
Complete name                            : Z:\rss\(ハル) (HD)\(ハル) (HD).mp4
Format                                   : MPEG-4
Format profile                           : Base Media / Version 2
Codec ID                                 : mp42
File size                                : 3.45 GiB
Duration                                 : 1h 58mn
Overall bit rate mode                    : Variable
Overall bit rate                         : 4 159 Kbps
Movie name                               : (ハル)
Performer                                : 森田芳光
Director                                 : 森田芳光
Actor                                    : 深津絵里 / 内野聖陽 / 宮沢和史 / 戸田菜穂
Production studio                        : myシアターD.D.
Genre                                    : ドラマ
ContentType                              : Short Film
Description                              : 恋人を亡くしてから、恋愛を拒否し続けてきた女・ほしと、肩を壊し、アメリカンフットボールを奪われた男・ハル。遠く離れた場所に住む二人は、パソコン通信を通じて出会い、
Recorded date                            : UTC 1996-03-16 08:00:00
Encoded date                             : UTC 2016-05-27 13:09:29
Tagged date                              : UTC 2016-05-27 13:16:17
Copyright                                : © 光和インターナショナル
Cover                                    : Yes
Rating                                   : None
AppleStoreAccount                        :                      
ownr                                     :          
AppleStoreCatalogID                      : 516274222
GenreID                                  : 4406
AppleStoreCountry                        : Japan
HDVideo                                  : Yes
PurchaseDate                             : 2016-05-27 07:20:25
rrrb                                     : 2016-05-27 13:08:12
rrrd                                     : 2592000
rrrc                                     : 172800
Title/Sort                               : はる
Flavour                                  : 7:720p
ContentRating                            : jp-movie|G|100|
LongDescription                          : 恋人を亡くしてから、恋愛を拒否し続けてきた女・ほしと、肩を壊し、アメリカンフットボールを奪われた男・ハル。遠く離れた場所に住む二人は、パソコン通信を通じて出会い、一度も顔を合わせることないままお互いを理解し合い、支え合い、そして恋に落ちる…。
copy-warning                             :  
rpsd                                     : 2016-05-27 13:09:29

Video
ID                                       : 2
Format                                   : AVC
Format/Info                              : Advanced Video Codec
Format profile                           : High@L3.1
Format settings, CABAC                   : Yes
Format settings, ReFrames                : 2 frames
Format settings, GOP                     : M=2, N=120
Codec ID                                 : avc1
Codec ID/Info                            : Advanced Video Coding
Duration                                 : 1h 58mn
Bit rate mode                            : Variable
Bit rate                                 : 4 027 Kbps
Maximum bit rate                         : 768 Kbps
Width                                    : 1 280 pixels
Height                                   : 694 pixels
Display aspect ratio                     : 1.85:1
Frame rate mode                          : Constant
Frame rate                               : 23.976 fps
Original frame rate                      : 25.000 fps
Color space                              : YUV
Chroma subsampling                       : 4:2:0
Bit depth                                : 8 bits
Scan type                                : Progressive
Bits/(Pixel*Frame)                       : 0.189
Stream size                              : 3.34 GiB (97%)
Language                                 : English
Encoded date                             : UTC 2016-05-27 13:09:29
Tagged date                              : UTC 2016-05-27 13:16:17

Audio
ID                                       : 1
Format                                   : AAC
Format/Info                              : Advanced Audio Codec
Format profile                           : LC
Codec ID                                 : 40
Duration                                 : 1h 58mn
Bit rate mode                            : Variable
Bit rate                                 : 128 Kbps
Maximum bit rate                         : 180 Kbps
Channel(s)                               : 2 channels
Channel positions                        : Front: L R
Sampling rate                            : 48.0 KHz
Compression mode                         : Lossy
Stream size                              : 108 MiB (3%)
Language                                 : Japanese
Encoded date                             : UTC 2016-05-27 13:09:29
Tagged date                              : UTC 2016-05-27 13:16:17

Menu
ID                                       : 3
Codec ID                                 : text
Duration                                 : 1h 58mn
Encoded date                             : UTC 2016-05-27 13:09:29
Tagged date                              : UTC 2016-05-27 13:09:29
00:00:00.000                             : ハンドル名を入力してください。
00:04:57.000                             : 初めてのメール
00:10:45.000                             : 僕の方は
00:16:24.000                             : 教えて
00:17:50.000                             : 辞めました
00:20:00.000                             : 「タッチダウン」観ました
00:22:27.000                             : 私は……。
00:27:01.000                             : パン屋さんです
00:35:07.000                             : 何かあったの?
00:36:52.000                             : 私のこと教えてあげる
00:37:46.000                             : 目印は?
00:39:41.000                             : 胸、張ってるの
00:43:12.000                             : ID変わりました
00:46:41.000                             : コンパニオンやっています
00:48:08.000                             : コーフン
00:50:46.000                             : レーメン
00:56:51.000                             : プロポーズされました
00:59:45.000                             : 男と女の光景
01:03:33.000                             : ひどいわ
01:08:08.000                             : 京王線
01:11:42.000                             : もう一人の自分
01:18:07.000                             : 両親のこと
01:22:07.000                             : 一人でスルなよ
01:23:14.000                             : 他の部屋の音
01:24:29.000                             : ハンカチ振ります
01:26:34.000                             : 赤い服の女
01:28:23.000                             : ハルが見えます
01:30:00.000                             : 本名
01:46:51.000                             : ごめんね
01:50:35.000                             : 東京に行きます
Bit rate mode                            : VBR

These files can all be downloaded at Usenet.

(ハル) (HD).mp4
(ハル) (HD).srt

Get 14 Days for free Access to USENET. Free 300 GB Unlimited downloads!