Namie Amuro – namie amuro LIVE STYLE 2014 [2015] Bluray x264 1080p

Posted 14/02/2015 Video , ,

Namie Amuro - namie amuro LIVE STYLE 2014 [2015.02.11]
h264 / Blu-Ray
(安室奈美恵 - namie amuro LIVE STYLE 2014)
Main concert rip of Namie Amuro's LIVE STYLE 2014. Encoded specifically to work on Apple TV with custom chapter track, but will work with anything that plays H.264/MPEG-4 AVC files.

Format : MPEG-4
Format profile : Base Media / Version 2
Codec ID : mp42
File size : 9.01 GiB
Duration : 2h 10mn
Overall bit rate mode : Variable
Overall bit rate : 9 870 Kbps
Movie name : namie amuro LIVE STYLE 2014
Performer : 安室奈美恵
Genre : Concert Films
ContentType : Short Film
Description : Namie performs live at Yoyogi National Gymnasium during her third Live Style Arena Tour.
Recorded date : 2015-02-11
Encoded date : UTC 1904-01-01 00:00:00
Tagged date : UTC 2015-02-13 22:02:54
Copyright : © 2015 AVEX MUSIC CREATIVE INC.
Cover : Yes
Rating : None
LongDescription : Namie performs live at Yoyogi National Gymnasium during her third Live Style Arena Tour.
ContentRating : mpaa|NR|000|
iTunMOVI : / / / / cast / / / name / Namie Amuro / / / name / Yusuke / / / name / Ryoji / / / name / Tadashi / / / name / Hossy / / / name / Hiroyuki / / / name / Keisuke / / / name / Risa / / / name / Yuu / / / name / Miki / / / name / Maasa / / / name / Shikino / / / name / Uno / / / directors / / / name / Tamae Otsuka / / / /

Video #1
ID : 1
Format : AVC
Format/Info : Advanced Video Codec
Format profile : High@L4.0
Format settings, CABAC : Yes
Format settings, ReFrames : 6 frames
Codec ID : avc1
Codec ID/Info : Advanced Video Coding
Duration : 2h 10mn
Bit rate : 9 698 Kbps
Width : 1 920 pixels
Height : 1 080 pixels
Display aspect ratio : 16:9
Frame rate mode : Constant
Frame rate : 29.970 fps
Color space : YUV
Chroma subsampling : 4:2:0
Bit depth : 8 bits
Scan type : Progressive
Bits/(Pixel*Frame) : 0.156
Stream size : 8.85 GiB (98%)
Writing library : x264 core 142 r2479 dd79a61
Encoding settings : cabac=1 / ref=6 / deblock=1:2:2 / analyse=0x3:0x113 / me=hex / subme=7 / psy=1 / psy_rd=1.00:0.00 / mixed_ref=1 / me_range=16 / chroma_me=1 / trellis=1 / 8x8dct=1 / cqm=0 / deadzone=21,11 / fast_pskip=1 / chroma_qp_offset=-2 / threads=6 / lookahead_threads=1 / sliced_threads=0 / nr=0 / decimate=0 / interlaced=0 / bluray_compat=0 / constrained_intra=0 / bframes=5 / b_pyramid=2 / b_adapt=2 / b_bias=0 / direct=1 / weightb=1 / open_gop=0 / weightp=2 / keyint=300 / keyint_min=30 / scenecut=40 / intra_refresh=0 / rc_lookahead=40 / rc=crf / mbtree=1 / crf=20.0 / qcomp=0.60 / qpmin=0 / qpmax=69 / qpstep=4 / vbv_maxrate=25000 / vbv_bufsize=31250 / crf_max=0.0 / nal_hrd=none / filler=0 / ip_ratio=1.40 / aq=1:1.00
Encoded date : UTC 1904-01-01 00:00:00
Tagged date : UTC 1904-01-01 00:00:00
Color primaries : BT.709
Transfer characteristics : BT.709
Matrix coefficients : BT.709

Video #2
ID : 4
Format : JPEG
Codec ID : jpeg
Duration : 2h 10mn
Bit rate mode : Variable
Bit rate : 1 339 bps
Width : 640 pixels
Height : 359 pixels
Display aspect ratio : 16:9
Frame rate mode : Variable
Frame rate : 0.004 fps
Minimum frame rate : 0.003 fps
Maximum frame rate : 0.011 fps
Color space : YUV
Chroma subsampling : 4:2:0
Bit depth : 8 bits
Compression mode : Lossy
Bits/(Pixel*Frame) : 1.457
Stream size : 1.36 MiB (0%)
Encoded date : UTC 2015-02-13 22:02:53
Tagged date : UTC 2015-02-13 22:02:53

Audio
ID : 2
Format : AAC
Format/Info : Advanced Audio Codec
Format profile : LC
Codec ID : 40
Duration : 2h 10mn
Bit rate mode : Variable
Bit rate : 160 Kbps
Maximum bit rate : 188 Kbps
Channel(s) : 2 channels
Channel positions : Front: L R
Sampling rate : 48.0 KHz
Compression mode : Lossy
Stream size : 150 MiB (2%)
Title : Stereo
Language : Japanese
Encoded date : UTC 1904-01-01 00:00:00
Tagged date : UTC 1904-01-01 00:00:00

Menu #1
00:58:02.579 : Can You Feel This Love
01:58:01.508 : CAN'T SLEEP, CAN'T EAT, I'M SICK (Remix)
02:07:49.428 : Credits

Menu #2
ID : 3
Codec ID : text
Duration : 2h 10mn
Encoded date : UTC 2015-02-13 20:23:13
Tagged date : UTC 2015-02-13 20:23:13
00:58:02.579 : Can You Feel This Love
01:58:01.508 : CAN'T SLEEP, CAN'T EAT, I'M SICK (Remix)
02:01:20.874 : Baby Don't Cry

Filename Size
namie amuro LIVE STYLE 2014 (1080p HD).m4v 9.01 GB

 


These files can all be downloaded at Usenet.

namie amuro LIVE STYLE 2014 (1080p HD).m4v

Get 14 Days for free Access to USENET. Free 300 GB Unlimited downloads!