Saving Mr Wu [2015] WEB-DL x264 1080p

Posted 20/12/2015 Film ,


Saving Mr Wu 2015 WEB-DL 1080P x264
解救吾先生*低码慎下

◎译  名 最强对手
◎片  名 解救吾先生
◎年  代 2015
◎国  家 中国大陆
◎类  别 剧情/犯罪
◎语  言 汉语普通话
◎上映日期 2015-09-26(丝绸之路电影节)/2015-09-30(中国大陆)
◎IMDb评分 7.0/10 from 185 users
◎IMDb链接 www.imdb.com/title/tt4819560/
◎豆瓣评分 8.0/10 from 58,753 users
◎豆瓣链接 http://movie.douban.com/subject/25798448/
◎片  长 106分钟
◎导  演 丁晟 Sheng Ding
◎主  演 刘德华 Andy Lau
刘烨 Ye Liu
吴若甫 Ruofu Wu
王千源 Qianyuan Wang
林雪 Suet Lam
赵小锐 Xiaorui Zhao
李梦 Meng Li
蔡鹭 Lu Cai
陆彭 Peng Lu
余皑磊 Ailei Yu

◎简  介

春节假期的夜晚,市中心的酒吧一条街繁华喧嚣,香港电影明星吾先生(刘德华 饰)走出酒吧就被冒充警察的张华(王千源 饰)一伙人持枪绑架到一个与世隔绝的郊外小院里。吾先生意外发现绑匪还绑架了另外一个人质小窦(蔡鹭 饰)经过与张华的一番谈判,吾先生将小窦从死亡线拉回。两人开始了争取生机并相依为命的惊险20小时。
接到报案的警方迅速组织最强警力,刑警队长刑峰(刘烨 饰)和曹刚(吴若甫 饰)联手展开侦破工作。但狡猾狂妄的绑匪张华有很强的反侦察能力,对同伙和人质也都不讲规矩,单独出门与吾先生的好友(林雪 饰)交收赎款。但是他在取得赎金之际交代同伙到晚上九点,无论能不能拿到赎金都要将人质杀害。
经过几番侦查和对抗,警方掌握了张华的行踪,邢峰和曹刚精准配合,在极度危险的情况下将张华抓获。此事离绑匪约定好的撕票时间还剩下两个小时。深夜九 点即将到来,邢峰和曹刚再次联手与垂死挣扎的张华展开心里较量,并在最后时刻找到突破口,但张华的同伙却打算提早撕票……
影片改编自2004年的“吴若甫绑架案”。

◎获奖情况

第52届台北金马影展 (2015)
金马奖 最佳男配角(提名) 王千源
金马奖 最佳剪辑(提名) 丁晟

◎幕后揭秘
关于《解救吾先生》你应该知道的10件事

1.根据2004年发生于北京的吴若甫绑架案这一真实明星被绑架事件改编。
2.丁晟拍摄前专门在警察局与民警同吃同住3个月体验生活,而且查阅了大量案卷资料,收集了所有与吴若甫绑架案有关的素材。在资料搜集期间他完整地跟了7宗绑架案,导演都拿着小DV全程跟踪纪录。
3.《解救吾先生》是用纪实的拍摄手法,导演的摄影机是全程扛拍的,没在三角架上放过,非常自如地围着演员旋转,演员也非常自由地表演。
4.有一场追逐的戏,导演用贴近剧中人物的方式,把观众强行拉入现场,让观众参与这场戏同步追逐,导演把摄影机放在车头上,撞车的时候,摄影机就在撞车部位前面的5公分距离,使观众感到份外刺激
5.导演丁晟表示为了能够达到最真实的观感,采取了街头实拍的方式,不设路障,车手在真实的车流里上演激烈的碰撞和追逐,让演员能够抓住偶然性的最真实的拍摄手法。
6.影片对于真实案件的还原率「超过70%」,这在国产片中尚属罕见。
7.原案保留了很多视频资料,当年电视台、刑警备一直跟拍。所有演员都看到了当年的资料。导演每拍完一场戏都会再回放当年的资料作参考,包括参考摄影机的镜位,形同纪实。
8.丁晟表示:当下电影圈越来越浮躁,对一部真正的电影来说,小鲜肉、颜值、男神这些手段都不应该是最重要的,最重要的是演员的演技,以及如何讲好一个故事。回归电影本身才是真正的电影。
9.刘德华在拍摄期间,长达80%的时间需要受到手铐、铁链以及脚镣的特殊对待。为了将戏中的情境推向极致,他甚至主动要求对戏的演员,用电线将自己勒至几近窒息。
10.自震惊中国内地娱乐圈的「吴若甫绑架案」发生后,被解救的吴若甫一度淡出公众视线。导演丁晟和演员刘烨在警队体验生活三个月的诚意打动了吴若甫。

General
Complete name : E:\Saving.Mr.Wu.2015.WEB-DL.1080P.x264.mp4
Format : MPEG-4
Format profile : Base Media
Codec ID : isom (isom/letv)
File size : 2.35 GiB
Duration : 1h 46mn
Overall bit rate mode : Variable
Overall bit rate : 3 167 Kbps
Encoded date : UTC 2015-12-17 15:45:29
Tagged date : UTC 2015-12-17 15:45:29

Video
ID : 1
Format : AVC
Format/Info : Advanced Video Codec
Format profile : High@L4
Format settings, CABAC : Yes
Format settings, ReFrames : 4 frames
Codec ID : avc1
Codec ID/Info : Advanced Video Coding
Duration : 1h 46mn
Bit rate : 3 027 Kbps
Maximum bit rate : 14.3 Mbps
Width : 1 920 pixels
Height : 800 pixels
Display aspect ratio : 2.40:1
Frame rate mode : Variable
Frame rate : 25.000 fps
Minimum frame rate : 24.671 fps
Maximum frame rate : 25.112 fps
Color space : YUV
Chroma subsampling : 4:2:0
Bit depth : 8 bits
Scan type : Progressive
Bits/(Pixel*Frame) : 0.079
Stream size : 2.24 GiB (96%)
Writing library : Provided by letv cloud :: H.264/MPEG-4 AVC codec -V 1.6.09-20151125 
Encoded date : UTC 2015-12-17 14:35:50
Tagged date : UTC 2015-12-17 15:45:37
Color range : Limited
Color primaries : BT.709
Transfer characteristics : BT.709
Matrix coefficients : BT.709

Audio
ID : 2
Format : AAC
Format/Info : Advanced Audio Codec
Format profile : LC
Codec ID : 40
Duration : 1h 46mn
Bit rate mode : Variable
Bit rate : 128 Kbps
Maximum bit rate : 134 Kbps
Channel(s) : 2 channels
Channel positions : Front: L R
Sampling rate : 44.1 KHz
Frame rate : 43.066 fps (1024 spf)
Compression mode : Lossy
Stream size : 97.2 MiB (4%)
Language : English
Encoded date : UTC 2015-12-17 15:45:36
Tagged date : UTC 2015-12-17 15:45:37

These files can all be downloaded at Usenet.

Saving.Mr.Wu.2015.WEB-DL.1080P.x264-nuper.mp4 mirror

Get 14 Days for free Access to USENET. Free 300 GB Unlimited downloads!