The Target (Pyojeok) 2014 BRRip x264 1080p

Posted 16/11/2014 Film

An ex-mercenary killer is framed for the murder of a renowned corporate leader. He is accompanied by an ordinary doctor who is desperate to save his abducted pregnant wife, and together they embark on a dangerous 36-hour pursuit.

Video: 2875 Kbps 1920x804 pixels 23.976 fps
Audio: AC-3 448 Kbps 48.0 KHz
Subtitle:

iMDB: www.imdb.com/title/tt3634940/

General
Format : Matroska
Format version : Version 2
File size : 2.33 GiB
Duration : 1h 38mn
Overall bit rate : 3 387 Kbps
Writing application : HandBrake 0.9.9
Writing library : libmkv 0.6.5

Video
ID : 1
Format : AVC
Format/Info : Advanced Video Codec
Format profile : High@L4.1
Format settings, CABAC : Yes
Format settings, ReFrames : 5 frames
Codec ID : V_MPEG4/ISO/AVC
Duration : 1h 38mn
Bit rate : 2 875 Kbps
Width : 1 920 pixels
Height : 804 pixels
Display aspect ratio : 2.40:1
Frame rate mode : Constant
Frame rate : 23.976 fps
Color space : YUV
Chroma subsampling : 4:2:0
Bit depth : 8 bits
Scan type : Progressive
Bits/(Pixel*Frame) : 0.078
Stream size : 1.97 GiB (85%)
Language : English
Default : Yes
Forced : No
Color primaries : BT.709
Transfer characteristics : BT.709
Matrix coefficients : BT.709

Audio
ID : 2
Format : AC-3
Format/Info : Audio Coding 3
Mode extension : CM (complete main)
Format settings, Endianness : Big
Codec ID : A_AC3
Duration : 1h 38mn
Bit rate mode : Constant
Bit rate : 448 Kbps
Channel(s) : 6 channels
Channel positions : Front: L C R, Side: L R, LFE
Sampling rate : 48.0 KHz
Bit depth : 16 bits
Compression mode : Lossy
Stream size : 315 MiB (13%)
Default : Yes
Forced : No

Text #1
ID : 3
Format : PGS
Codec ID : S_HDMV/PGS
Codec ID/Info : The same subtitle format used on BDs/HD-DVDs
Default : No
Forced : No

Text #2
ID : 4
Format : PGS
Codec ID : S_HDMV/PGS
Codec ID/Info : The same subtitle format used on BDs/HD-DVDs
Default : No
Forced : No

Text #3
ID : 5
Format : PGS
Codec ID : S_HDMV/PGS
Codec ID/Info : The same subtitle format used on BDs/HD-DVDs
Default : No
Forced : No

The.Target.2014.BluRay.1080p-3K.rar

These files can all be downloaded at Usenet. Get 14 Days for free Access to USENET. Free 300 GB Unlimited downloads!